<?xml version="1.0" standalone="no"?>
<!DOCTYPE svg PUBLIC "-//W3C//DTD SVG 1.1//EN" "http://www.w3.org/Graphics/SVG/1.1/DTD/svg11.dtd" >
<svg xmlns="http://www.w3.org/2000/svg" xmlns:xlink="http://www.w3.org/1999/xlink" version="1.1">
<metadata></metadata>
<defs>
<font id="alegreya_sanslight" horiz-adv-x="983" >
<font-face units-per-em="2048" ascent="1638" descent="-410" />
<missing-glyph horiz-adv-x="352" />
<glyph unicode="&#xa8;I" horiz-adv-x="522" d="M76 1606q0 32 18.5 50.5t50.5 18.5q31 0 48.5 -17t17.5 -48q0 -32 -19 -51t-51 -19q-31 0 -48 17.5t-17 48.5zM207 0l6 397l-6 912h108l-6 -906l4 -403h-106zM311 1606q0 32 19 50.5t51 18.5q31 0 48 -17t17 -48q0 -32 -18.5 -51t-50.5 -19q-31 0 -48.5 17.5t-17.5 48.5z " />
<glyph unicode="&#xa8;O" horiz-adv-x="1292" d="M88 647q0 324 148.5 499t425.5 175q262 0 403 -167t141 -476q0 -333 -148 -511.5t-425 -178.5q-262 0 -403.5 171t-141.5 488zM195 657q0 -285 112.5 -432t329.5 -147q225 0 342 149t117 437q0 279 -113 422t-332 143q-224 0 -340 -145.5t-116 -426.5zM428 1606 q0 32 19 50.5t51 18.5q31 0 48 -17t17 -48q0 -32 -18.5 -51t-50.5 -19q-31 0 -48.5 17.5t-17.5 48.5zM733 1606q0 32 19 50.5t51 18.5q31 0 48 -17t17 -48q0 -32 -18.5 -51t-50.5 -19q-31 0 -48.5 17.5t-17.5 48.5z" />
<glyph unicode="&#xb4;Y" horiz-adv-x="1048" d="M41 1309h119l24 -64l318 -635h14l348 633l25 66h119l-451 -828l-2 -90l4 -391h-106l6 391l-2 92zM358 1540q215 105 379 203l15 -4l28 -62l-4 -14q-169 -88 -379 -182l-16 6z" />
<glyph unicode="&#xa8;i" horiz-adv-x="473" d="M53 1229q0 32 19 50.5t51 18.5q31 0 48 -17t17 -48q0 -32 -18.5 -51t-50.5 -19q-31 0 -48.5 17.5t-17.5 48.5zM182 0l6 399l-6 525l107 12l-8 -530l6 -406h-105zM289 1229q0 32 18.5 50.5t50.5 18.5q31 0 48.5 -17t17.5 -48q0 -32 -19 -51t-51 -19q-31 0 -48 17.5 t-17 48.5z" />
<glyph unicode="&#xa8;o" horiz-adv-x="1001" d="M100 455q0 232 108 361.5t302 129.5q183 0 286 -124t103 -345q0 -230 -108.5 -359.5t-301.5 -129.5q-184 0 -286.5 123.5t-102.5 343.5zM201 475q0 -197 77.5 -302t217.5 -105q145 0 224 101t79 288q0 196 -77.5 302.5t-217.5 106.5q-145 0 -224 -102.5t-79 -288.5z M281 1229q0 32 18.5 50.5t50.5 18.5q31 0 48.5 -17t17.5 -48q0 -32 -19 -51t-51 -19q-31 0 -48 17.5t-17 48.5zM586 1229q0 32 18.5 50.5t50.5 18.5q31 0 48.5 -17t17.5 -48q0 -32 -19 -51t-51 -19q-31 0 -48 17.5t-17 48.5z" />
<glyph unicode="&#xb4;y" horiz-adv-x="851" d="M-39 -324l2 17q167 33 255.5 97.5t154.5 209.5l-342 928l102 10l31 -109l254 -698h12l260 690l31 111h102l-348 -914q-71 -192 -170 -279.5t-282 -127.5h-15q-30 30 -47 65zM305 1112q163 135 320 289l12 -2l43 -56l-2 -14q-112 -97 -324 -268l-14 2z" />
<glyph unicode="&#xfb01;" horiz-adv-x="1089" d="M84 864l8 66h137v153q0 186 86.5 273.5t270.5 87.5q127 0 258 -45l-17 -90l-16 -4q-116 55 -236 55q-126 0 -184.5 -62.5t-58.5 -197.5l-2 -170h520l61 10l11 -6l-7 -541l7 -393h-107l6 387l-4 467h-487l-4 -459l6 -395h-105l6 387l-2 467h-139z" />
<glyph unicode="&#xfb02;" horiz-adv-x="1107" d="M84 864l8 66h139l-2 182q-1 170 92.5 258t268.5 88q105 0 239 -28l89 8l-9 -1032l6 -406h-104l6 399l-6 936q-122 39 -223 39q-255 0 -258 -250l-2 -194h254l6 -10l-8 -66h-252l-2 -455l6 -399h-105l6 393l-2 461h-139z" />
<glyph horiz-adv-x="0" />
<glyph horiz-adv-x="682" />
<glyph unicode=" "  horiz-adv-x="352" />
<glyph unicode="&#x09;" horiz-adv-x="352" />
<glyph unicode="&#xa0;" horiz-adv-x="352" />
<glyph unicode="!" horiz-adv-x="516" d="M170 61q0 32 19 52t51 20t49.5 -18t17.5 -49q0 -34 -18.5 -53t-50.5 -19t-50 17.5t-18 49.5zM217 436l8 893l11 12l79 5l15 -13l-33 -905l-68 -6z" />
<glyph unicode="&#x22;" horiz-adv-x="518" d="M102 958l17 338l82 9l10 -13l-39 -336l-59 -8zM319 958l17 338l82 9l10 -13l-37 -336l-61 -8z" />
<glyph unicode="#" horiz-adv-x="1021" d="M41 442l6 64h234l57 250h-213l-8 10l6 63h233l82 349h66l8 -15l-80 -334h234l82 349h65l8 -15l-80 -334h230l10 -10l-8 -63h-248l-59 -250h231l8 -10l-6 -62h-250l-88 -368h-65l-9 10l84 358h-231l-88 -368h-68l-6 10l84 358h-213zM356 506h234l57 250h-231z" />
<glyph unicode="$" horiz-adv-x="872" d="M111 63l10 93l14 6q99 -83 234 -94l34 409q-63 29 -99 48t-80.5 53t-65.5 77t-21 97q0 108 86 184t226 82l22 295h59l13 -13l-23 -284q93 -7 182 -45l-16 -86l-18 -4q-74 46 -154 59l-33 -397q56 -24 94.5 -45.5t78.5 -54t60.5 -75.5t20.5 -96q0 -107 -82.5 -186.5 t-218.5 -91.5l-22 -254h-58l-10 12l18 240q-134 7 -251 71zM225 758q0 -61 48.5 -102.5t138.5 -82.5l30 371q-99 -6 -158 -62t-59 -124zM440 68q92 12 148.5 67t56.5 123q0 63 -44.5 105.5t-127.5 82.5z" />
<glyph unicode="%" horiz-adv-x="1656" d="M92 952q0 177 76 270t221 93q137 0 210 -89.5t73 -258.5q0 -179 -75 -272t-220 -93q-138 0 -211.5 91t-73.5 259zM170 961q0 -138 54.5 -209.5t160.5 -71.5q103 0 157 70.5t54 203.5q0 138 -55 209.5t-160 71.5q-103 0 -157 -70.5t-54 -203.5zM272 -137l979 1517l47 -26 l11 -23l-979 -1515l-47 24zM983 344q0 174 77 267.5t220 93.5q138 0 211.5 -90.5t73.5 -258.5q0 -177 -76 -270.5t-221 -93.5q-137 0 -211 91t-74 261zM1061 350q0 -137 55 -208.5t160 -71.5q103 0 157 70.5t54 203.5q0 138 -54.5 209.5t-160.5 71.5q-103 0 -157 -70.5 t-54 -204.5z" />
<glyph unicode="&#x26;" horiz-adv-x="1404" d="M141 342q0 226 236 352v8q-77 71 -112.5 144t-35.5 158q0 148 96.5 232.5t274.5 84.5q168 0 318 -78l-25 -82h-21q-124 78 -272 78q-135 0 -205.5 -64t-70.5 -178q0 -73 32 -133t109 -123l508 -450q35 81 35 182q0 147 -70 272h-152l-8 11l10 71h582l10 -10l-12 -72h-334 l-2 -10q53 -139 53 -270t-49 -229l273 -242v-8q-33 -33 -64 -49l-8 2l-248 219q-130 -168 -399 -168q-200 0 -324.5 94.5t-124.5 257.5zM233 356q0 -131 102 -208.5t263 -77.5q222 0 330 143l-492 438q-95 -49 -149 -124t-54 -171z" />
<glyph unicode="'" horiz-adv-x="301" d="M102 958l17 338l82 9l10 -13l-39 -336l-59 -8z" />
<glyph unicode="(" horiz-adv-x="583" d="M180 528q2 317 79.5 507t260.5 323h12l39 -41v-12q-162 -123 -230.5 -300.5t-70.5 -474.5q2 -295 70.5 -471t230.5 -299v-12l-39 -39h-12q-183 132 -260.5 319.5t-79.5 499.5z" />
<glyph unicode=")" horiz-adv-x="583" d="M12 -240q162 123 230.5 300.5t70.5 476.5q-2 295 -70 470t-231 298v12l39 41h12q183 -134 261 -321t79 -500q-2 -317 -79.5 -506.5t-260.5 -321.5h-12l-39 39v12z" />
<glyph unicode="*" horiz-adv-x="755" d="M78 1227q0 45 12 86l10 4l207 -111l-8 -49l-12 -4zM141 934l164 172l43 -23v-16l-127 -182q-10 3 -21.5 8t-18.5 9t-19.5 11.5t-18.5 10.5zM342 1243l4 227q40 15 84 15l6 -10l-35 -238l-49 -6zM397 1075l35 33l17 -2l124 -186q-17 -28 -59 -62l-12 2zM436 1200l6 12 l209 68q29 -42 39 -78l-6 -6l-227 -41z" />
<glyph unicode="+" d="M72 516l6 72h373v373l71 8l10 -11v-370h369l10 -10l-6 -70h-373v-375l-71 -6l-10 10v371h-371z" />
<glyph unicode="," horiz-adv-x="471" d="M123 -172q113 84 113 170q0 48 -64 84v12q34 27 74 41q82 -50 82 -121q0 -108 -166 -233l-39 37v10z" />
<glyph unicode="-" horiz-adv-x="632" d="M61 457v71l498 68l12 -10v-72l-497 -70z" />
<glyph unicode="." horiz-adv-x="471" d="M166 61q0 32 19 52t51 20t49.5 -18t17.5 -49q0 -34 -19 -53t-51 -19q-67 0 -67 67z" />
<glyph unicode="/" horiz-adv-x="591" d="M70 -217l417 1601h76l10 -12l-419 -1599h-76z" />
<glyph unicode="0" horiz-adv-x="1087" d="M104 494q0 255 116 392.5t331 137.5q209 0 321.5 -133.5t112.5 -382.5q0 -250 -115.5 -384t-330.5 -134q-209 0 -322 130.5t-113 373.5zM190 502q0 -204 92 -311t265 -107q170 0 260 105.5t90 306.5q0 210 -91 320t-263 110q-171 0 -262 -109t-91 -315z" />
<glyph unicode="1" horiz-adv-x="690" d="M27 819v84l379 117l18 -14l-6 -584l4 -422h-107l7 408l-3 487l-278 -84z" />
<glyph unicode="2" horiz-adv-x="917" d="M104 2v70l285 329q115 133 169 222t54 157q0 63 -46 104.5t-128 41.5q-76 0 -149.5 -39t-134.5 -109h-13l-18 82q69 74 155.5 116t178.5 42q114 0 187 -60t73 -155q0 -82 -59.5 -186.5t-184.5 -251.5l-231 -271l4 -8h428l168 8l8 -10l-14 -88l-191 4h-457l-77 -2z" />
<glyph unicode="3" horiz-adv-x="825" d="M72 889q146 131 305 131q130 0 210.5 -69.5t80.5 -182.5q0 -90 -55.5 -172.5t-155.5 -132.5v-8q128 -29 196 -102t68 -185q0 -164 -123.5 -266.5t-321.5 -102.5q-93 0 -190 17l-8 90l8 10q95 -31 195 -31q153 0 246.5 74.5t93.5 198.5q0 111 -79.5 174t-226.5 69h-108 l-8 9l2 75l90 2q60 0 121.5 32.5t105 94.5t43.5 134q0 83 -54.5 132.5t-144.5 49.5q-128 0 -262 -125h-12z" />
<glyph unicode="4" horiz-adv-x="962" d="M59 188v72l525 754h98l-2 -748h203l10 -12l-10 -78l-168 2h-35l4 -360l-8 -11l-80 -8l-8 11l4 368h-412l-110 -2zM160 266h432v604h-12z" />
<glyph unicode="5" horiz-adv-x="841" d="M76 -92l10 10q103 -33 190 -33q163 0 261 83t98 220q0 98 -72 159.5t-229 96.5l-164 33l-10 12l10 506l23 21l104 -2h278l162 4l6 -8l-10 -86l-10 -9l-119 9h-348l-10 -369l131 -29q190 -40 274 -118.5t84 -204.5q0 -181 -132.5 -293.5t-344.5 -112.5q-79 0 -172 19z" />
<glyph unicode="6" horiz-adv-x="948" d="M109 426q0 268 158.5 473.5t449.5 314.5h10l76 -49v-12q-492 -175 -580 -547l10 -10q132 104 295 104q152 0 237 -90.5t85 -247.5q0 -174 -100 -275t-281 -101q-177 0 -268.5 113.5t-91.5 326.5zM205 428q0 -179 68.5 -272t203.5 -93q131 0 204 75t73 212 q0 129 -65.5 198.5t-184.5 69.5q-159 0 -297 -122q-2 -20 -2 -68z" />
<glyph unicode="7" horiz-adv-x="839" d="M51 928l8 90l160 -4h477l82 2l2 -80l-426 -936l-82 -213l-88 27l-6 18l500 1090h-479l-138 -9z" />
<glyph unicode="8" horiz-adv-x="952" d="M104 295q0 64 22.5 116.5t63 90.5t82.5 63.5t95 48.5v9q-96 46 -153.5 111.5t-57.5 172.5q0 140 92.5 220.5t240.5 80.5q141 0 222.5 -74t81.5 -204q0 -111 -60.5 -181t-163.5 -118v-8q38 -16 64 -29.5t59.5 -33.5t55.5 -42.5t42.5 -52t30.5 -67t10 -81.5 q0 -150 -102.5 -238.5t-273.5 -88.5q-161 0 -256 83.5t-95 221.5zM199 301q0 -104 71 -167.5t193 -63.5q127 0 201.5 66t74.5 173q0 45 -15.5 81.5t-38 61.5t-60.5 48.5t-70 38.5t-81 35q-3 1 -5 2t-5 2t-5 2q-44 -16 -76 -31t-69 -39.5t-60 -52t-39 -68t-16 -88.5zM248 909 q0 -51 17.5 -90t53 -68t69.5 -47t87 -40q49 18 85.5 38t71.5 50.5t54 74t19 97.5q0 95 -59 149.5t-161 54.5q-107 0 -172 -59.5t-65 -159.5z" />
<glyph unicode="9" horiz-adv-x="948" d="M98 653q0 174 100 275.5t281 101.5q177 0 269 -114t92 -326q0 -268 -159 -474t-450 -315h-10l-76 49v13q492 175 580 547l-10 10q-134 -105 -295 -105q-152 0 -237 90.5t-85 247.5zM195 666q0 -129 65 -199t184 -70q157 0 297 121q2 23 2 70q0 178 -68.5 271t-203.5 93 q-131 0 -203.5 -74.5t-72.5 -211.5z" />
<glyph unicode=":" horiz-adv-x="471" d="M158 61q0 33 18.5 52.5t50.5 19.5t50 -18t18 -49q0 -34 -19 -53t-51 -19q-67 0 -67 67zM158 621q0 32 18.5 51.5t50.5 19.5t50 -18t18 -49q0 -34 -19 -53t-51 -19t-49.5 18.5t-17.5 49.5z" />
<glyph unicode=";" horiz-adv-x="471" d="M115 -172q112 83 112 170q0 49 -63 84v12q34 27 74 41q81 -49 81 -121q0 -109 -165 -233l-39 37v10zM158 621q0 32 18.5 51.5t50.5 19.5t50 -18t18 -49q0 -34 -19 -53t-51 -19t-49.5 18.5t-17.5 49.5z" />
<glyph unicode="&#x3c;" d="M78 500v92l10 14l789 334l24 -63l-6 -13l-725 -309v-10l731 -291l-18 -66l-15 -8z" />
<glyph unicode="=" d="M72 356l6 70h823l10 -8l-6 -70h-825zM72 676l6 72h823l10 -11l-6 -69h-825z" />
<glyph unicode="&#x3e;" d="M82 254l731 291v10l-725 309l-6 13l24 63l789 -334l10 -14v-92l-790 -320l-15 8z" />
<glyph unicode="?" horiz-adv-x="669" d="M137 1278l23 61l16 9q235 -17 361.5 -100t126.5 -220q0 -161 -166 -268l-183 -123l-2 -6l11 -209l-78 -8l-10 12l-13 229l10 21l201 127q133 84 133 211q0 110 -107.5 175t-314.5 77zM219 61q0 32 19 52t51 20q31 0 49 -18t18 -49q0 -34 -18.5 -53t-50.5 -19t-50 17.5 t-18 49.5z" />
<glyph unicode="@" horiz-adv-x="1671" d="M82 387q0 186 60.5 344t169.5 269.5t266 174t344 62.5q307 0 490 -175.5t183 -463.5q0 -280 -169 -435.5t-486 -170.5l68 489h-19q-167 -307 -368 -493h-27q-68 44 -100.5 116t-32.5 191t31 229t89.5 199.5t150.5 148.5t206 72h8l131 -33l66 35l14 -8l-98 -717l-8 -147 q225 25 346 159t121 361q0 257 -164 412.5t-443 152.5q-222 -1 -393.5 -97.5t-264.5 -268.5t-93 -392q0 -223 98 -387.5t275.5 -250t414.5 -85.5l4 -12l-39 -59q-248 4 -435.5 99t-291.5 271t-104 410zM553 319q0 -47 5 -85.5t13 -62t18 -39.5t19 -22t17 -6q12 0 39.5 24.5 t70 75.5t90 119.5t104.5 168.5t109 210l4 35l7 92l-125 31q-112 -2 -198 -78t-129.5 -197.5t-43.5 -265.5z" />
<glyph unicode="A" horiz-adv-x="1161" d="M33 0l499 1309h121l457 -1309h-111l-28 111l-99 282l-311 4l-280 -4l-107 -278l-31 -115h-110zM317 487l256 -2l267 2l-244 699h-12z" />
<glyph unicode="B" horiz-adv-x="1056" d="M207 0l6 397l-6 912l311 2q173 0 267 -80t94 -230q0 -237 -197 -317q140 -24 214.5 -105t74.5 -217q0 -179 -128.5 -273.5t-375.5 -94.5q-143 0 -260 6zM309 403l4 -313q79 -6 162 -6q186 0 287.5 74.5t101.5 210.5q0 115 -73.5 180.5t-212.5 79.5l-267 -2zM311 721 l246 -4q213 45 213 274q0 113 -66.5 171.5t-195.5 58.5h-193z" />
<glyph unicode="C" horiz-adv-x="1069" d="M88 647q0 322 146.5 497t416.5 175q206 0 359 -109l-23 -96l-16 -2q-144 115 -324 115q-219 0 -334.5 -147.5t-115.5 -426.5q0 -278 113 -424.5t323 -146.5q194 0 358 129l17 -6l-9 -101q-176 -116 -372 -116q-259 0 -399 171t-140 488z" />
<glyph unicode="D" horiz-adv-x="1314" d="M207 0l6 397l-6 912l444 8q278 0 427 -160t149 -459q0 -342 -158 -525t-453 -183q-154 0 -409 10zM309 403l4 -311q188 -12 318 -12q235 0 361 153.5t126 446.5q0 269 -121 408t-352 139q-120 0 -330 -10z" />
<glyph unicode="E" horiz-adv-x="960" d="M207 0l6 397l-6 912h688l8 -13l-12 -84l-305 5l-271 -3l-4 -493l256 -2l219 2l9 -10l-11 -84l-473 2l-2 -226l4 -311l265 -2l321 6l8 -12l-10 -84h-690z" />
<glyph unicode="F" horiz-adv-x="866" d="M207 0l6 397l-6 912h655l10 -13l-12 -86l-293 7l-252 -3l-4 -518l240 -2l209 4l10 -12l-12 -82l-447 2l-2 -203l4 -403h-106z" />
<glyph unicode="G" horiz-adv-x="1232" d="M88 635q0 330 162 507t461 177q194 0 376 -102l-24 -99l-16 -2q-184 111 -349 111q-246 0 -373.5 -148.5t-127.5 -439.5q0 -557 454 -557q77 0 146.5 11.5t177.5 41.5l2 191l-2 174l102 8l-2 -170l4 -277q-136 -39 -232 -55.5t-198 -17.5q-277 0 -419 167.5t-142 479.5z " />
<glyph unicode="H" horiz-adv-x="1386" d="M207 0l6 397l-6 912h108l-4 -598l377 -2l387 2l-4 598h109l-4 -906l2 -403h-107l6 397l-2 219l-397 2l-367 -2l-2 -213l4 -403h-106z" />
<glyph unicode="I" horiz-adv-x="522" d="M207 0l6 397l-6 912h108l-6 -906l4 -403h-106z" />
<glyph unicode="J" horiz-adv-x="593" d="M14 1229l9 80h366l-4 -875l2 -196q0 -149 -70 -249t-239 -194l-43 60v16q137 80 194.5 162.5t57.5 202.5v186l-4 797h-256z" />
<glyph unicode="K" horiz-adv-x="1081" d="M205 0l6 397l-6 912h108l-4 -906l4 -403h-108zM352 690v8l473 506l84 105h129l-567 -613q290 -364 602 -673l-2 -15q-32 -12 -96 -24l-14 6q-365 386 -609 700z" />
<glyph unicode="L" horiz-adv-x="835" d="M203 0l6 397l-6 912h108l-6 -906l4 -311h508l10 -12l-12 -80h-612z" />
<glyph unicode="M" horiz-adv-x="1607" d="M137 0l142 1309h120l74 -201l322 -809h10l340 825l69 185h121l133 -1309h-98l-35 399l-80 725h-12l-399 -966h-96l-386 966h-12l-80 -718l-39 -406h-94z" />
<glyph unicode="N" horiz-adv-x="1386" d="M207 0l6 389l-4 920h110l748 -1131h10l2 1125l101 8l-6 -938v-373h-109l-748 1130h-12l-2 -710l4 -420h-100z" />
<glyph unicode="O" horiz-adv-x="1292" d="M88 647q0 324 148 499t423 175q264 0 405.5 -167t141.5 -476q0 -333 -148.5 -511.5t-424.5 -178.5q-262 0 -403.5 171t-141.5 488zM195 657q0 -285 113 -432t331 -147q224 0 341.5 149t117.5 437q0 279 -113.5 422t-333.5 143q-224 0 -340 -145.5t-116 -426.5z" />
<glyph unicode="P" horiz-adv-x="1030" d="M207 0l6 397l-6 912l348 2q186 0 286.5 -97t100.5 -278q0 -214 -122 -333.5t-343 -119.5h-168v-80l4 -403h-106zM311 578l228 -5q142 19 218.5 111t76.5 244q0 140 -74.5 214t-216.5 79l-228 -4z" />
<glyph unicode="Q" horiz-adv-x="1298" d="M88 647q0 324 148 499t423 175q264 0 405.5 -167t141.5 -480q0 -278 -107 -450.5t-308 -219.5q311 -239 702 -301l4 -16q-25 -49 -47 -68l-12 -2q-202 38 -395.5 134t-356.5 239l-51 -2q-264 0 -405.5 171t-141.5 488zM195 653q0 -282 113.5 -428.5t332.5 -146.5 q221 0 339 150.5t118 439.5q0 276 -114 418.5t-333 142.5q-224 0 -340 -146t-116 -430z" />
<glyph unicode="R" horiz-adv-x="1101" d="M207 0l6 397l-6 912l348 2q187 0 287 -94.5t100 -272.5q0 -142 -74 -247.5t-211 -159.5q155 -247 355 -512v-15q-34 -16 -92 -26l-17 8q-201 288 -336 520h-258v-109l4 -403h-106zM311 606l267 -4q125 34 190.5 119.5t65.5 216.5q0 136 -74.5 207t-216.5 76l-228 -4z" />
<glyph unicode="S" horiz-adv-x="940" d="M96 82l13 108l14 7q67 -59 151.5 -89t161.5 -30q133 0 216 78t83 180q0 62 -33.5 111t-87 83t-118.5 65.5t-130 65.5t-118.5 74t-87 101t-33.5 137q0 145 112 244.5t287 99.5q136 0 273 -62l-19 -98l-20 -6q-119 76 -246 76q-128 0 -205.5 -76t-77.5 -170q0 -46 21 -85.5 t56.5 -68.5t81 -55t96.5 -50t101.5 -49.5t96 -57t81 -68t56.5 -87.5t21 -112q0 -149 -116.5 -253.5t-297.5 -104.5q-184 0 -332 92z" />
<glyph unicode="T" horiz-adv-x="989" d="M51 1227l10 82h869l10 -13l-10 -82l-219 7h-160l-6 -818l4 -403h-107l7 397l-7 824h-159l-224 -7z" />
<glyph unicode="U" horiz-adv-x="1267" d="M164 475v834h104l-4 -824q-1 -196 93 -298.5t276 -102.5t277 100t94 291l-5 834h107l-2 -668v-158v-14q0 -223 -121 -349q-125 -130 -356 -130q-226 0 -346 126q-117 122 -117 348v11z" />
<glyph unicode="V" horiz-adv-x="1130" d="M35 1309h110l29 -113l377 -1075h10l410 1071l30 117h111l-500 -1309h-120z" />
<glyph unicode="W" horiz-adv-x="1820" d="M45 1309h109l24 -109l365 -1071h10l313 844l-116 336h110l29 -117l364 -1063h13l399 1067l29 113h104l-489 -1309h-109l-287 825h-10l-307 -825h-109z" />
<glyph unicode="X" horiz-adv-x="1183" d="M57 0l457 670l-434 639h131l51 -88l322 -469l317 465l51 92h121l-426 -629l461 -680h-131l-53 92l-346 504l-353 -510l-49 -86h-119z" />
<glyph unicode="Y" horiz-adv-x="1048" d="M41 1309h119l24 -64l320 -635h12l348 633l27 66h117l-451 -828l-2 -90l4 -391h-106l6 391l-2 92z" />
<glyph unicode="Z" horiz-adv-x="1060" d="M66 -4v82l776 1141h-578l-160 -11l-8 13l10 90l183 -2h592l90 2v-82l-776 -1139h606l170 8l8 -10l-10 -90l-197 2h-610z" />
<glyph unicode="[" horiz-adv-x="583" d="M219 -248l4 776l-4 775l334 20l10 -8v-58l-254 -20v-1419l254 -21v-57l-10 -8z" />
<glyph unicode="\" horiz-adv-x="591" d="M27 1372l10 12h74l417 -1601l-8 -10h-76z" />
<glyph unicode="]" horiz-adv-x="583" d="M20 -203l254 21v1419l-254 20v58l11 8l334 -20l-5 -777l5 -774l-334 -20l-11 10v55z" />
<glyph unicode="^" horiz-adv-x="851" d="M47 256l334 737l14 8h92l320 -739l-8 -12l-66 -19l-291 682h-10l-309 -675l-14 -7z" />
<glyph unicode="_" horiz-adv-x="925" d="M-31 -244l6 66h973l8 -8l-6 -68h-973z" />
<glyph unicode="`" horiz-adv-x="798" d="M211 1343l43 56l14 2q141 -141 320 -289l-35 -49l-14 -2q-169 134 -324 268z" />
<glyph unicode="a" horiz-adv-x="927" d="M100 231q0 165 181 207l340 80l4 166q0 87 -47 133.5t-134 46.5q-132 0 -286 -133l-13 6l-16 76q169 133 330 133q125 0 194.5 -62.5t69.5 -176.5q0 -30 -11.5 -264.5t-11.5 -264.5q0 -52 15.5 -74t52.5 -22t78 20l14 -10l-12 -67q-52 -30 -105 -33q-123 3 -129 153h-10 q-117 -133 -242 -157q-124 0 -193 64.5t-69 178.5zM197 244q0 -78 43 -122t118 -44q124 0 252 166l8 198l-317 -75q-104 -24 -104 -123z" />
<glyph unicode="b" horiz-adv-x="1038" d="M190 0l9 395l-6 1032l104 11l-4 -639h10q125 122 281 143q171 0 262.5 -118t91.5 -332q0 -241 -116 -373.5t-326 -132.5q-103 0 -209 39l-76 -37zM291 406l4 -281q111 -57 209 -57q159 0 247 107q87 106 87 303q0 177 -70 277q-68 97 -193 97q-151 0 -282 -158z" />
<glyph unicode="c" horiz-adv-x="790" d="M100 459q0 223 104.5 355t284.5 132q67 0 137 -19t122 -50l-21 -93l-16 -2q-106 74 -224 74q-132 0 -209 -105t-77 -288q0 -178 78 -282.5t213 -104.5q129 0 245 78l15 -9l-11 -90q-124 -67 -260 -67q-177 0 -279 127t-102 344z" />
<glyph unicode="d" horiz-adv-x="1048" d="M98 457q0 233 117 361t328 128q86 0 200 -26l-2 507l105 11l-6 -1032l2 -228q0 -52 15 -74t50 -22t76 20l14 -10l-12 -67q-52 -30 -104 -33q-118 3 -127 145h-11q-63 -64 -122.5 -99t-133.5 -48q-184 0 -286.5 122.5t-102.5 344.5zM277 182q77 -100 206 -100 q142 0 260 149l2 166l-2 424q-112 45 -211 45q-158 0 -246 -104q-87 -103 -87 -293q0 -185 78 -287z" />
<glyph unicode="e" horiz-adv-x="907" d="M100 457q0 225 112 356t300 131q147 0 230 -90.5t83 -249.5q0 -38 -4 -78l-24 -20l-596 -10v-33q0 -181 79 -284t226 -103q143 0 262 92l16 -6l-12 -92q-129 -82 -274 -82q-186 0 -292 126t-106 343zM209 573l516 15l4 26q0 120 -60.5 185t-164.5 65q-118 0 -195 -77 t-100 -214z" />
<glyph unicode="f" horiz-adv-x="593" d="M84 864l8 66h139l-2 192q0 155 76.5 237.5t218.5 82.5q65 0 152 -19l-8 -86l-11 -6q-71 29 -139 29q-91 0 -138.5 -57.5t-47.5 -167.5l-2 -205h250l6 -10l-8 -66h-248l-4 -451l6 -403h-105l6 393l-2 461h-139z" />
<glyph unicode="g" d="M117 -141q21 62 67.5 110t126.5 94v11q-79 21 -122.5 56.5t-43.5 96.5q26 59 123 123v6q-131 81 -131 262q0 152 93 238t253 86q113 0 189 -43q163 31 280 64l13 -9v-77q-122 -31 -205 -46l-2 -6q59 -77 59 -196q0 -148 -92.5 -235t-253.5 -87q-72 0 -143 23 q-46 -35 -63 -56t-17 -43q0 -36 46.5 -59t116.5 -31.5t151.5 -23.5t151.5 -34.5t116.5 -65.5t46.5 -115q0 -121 -125.5 -208t-300.5 -87q-155 0 -244.5 70.5t-89.5 181.5zM213 -156q0 -67 66 -113t182 -46q132 0 225.5 60t93.5 142q0 21 -6.5 38.5t-20.5 31.5t-29.5 24.5 t-41 19t-46.5 14.5t-54 12t-56 10t-59.5 9t-58.5 9q-94 -52 -144.5 -102.5t-50.5 -108.5zM233 623q0 -111 63.5 -174.5t178.5 -63.5q116 0 181 64.5t65 179.5q0 113 -62.5 174t-177.5 61q-117 0 -182.5 -63t-65.5 -178z" />
<glyph unicode="h" horiz-adv-x="1050" d="M193 0l6 399l-6 1028l106 11l-6 -652h12q69 68 144.5 109.5t142.5 48.5q144 0 220 -72q74 -71 73 -199v-7l-4 -263l4 -403h-107l8 645q0 98 -49.5 152.5t-142.5 54.5q-151 0 -301 -170l-2 -276l6 -406h-104z" />
<glyph unicode="i" horiz-adv-x="473" d="M168 1255q0 32 19 52t51 20t49.5 -18t17.5 -49q0 -34 -18.5 -53t-50.5 -19t-50 17.5t-18 49.5zM182 0l6 399l-6 525l107 12l-8 -530l6 -406h-105z" />
<glyph unicode="j" horiz-adv-x="501" d="M25 866l8 64h182l100 6l4 -4l-6 -526l4 -373q0 -160 -52 -252t-187 -176l-43 49v14q104 70 143 147t39 210l2 374l-4 455h-180zM168 1255q0 32 19 52t51 20t49.5 -18t17.5 -49q0 -34 -18.5 -53t-50.5 -19t-50 17.5t-18 49.5z" />
<glyph unicode="k" horiz-adv-x="897" d="M193 0l6 399l-6 1028l106 11l-8 -1032l6 -406h-104zM342 489v13l326 354l57 76h127l-399 -430q184 -226 428 -482v-14q-18 -8 -93 -22l-14 4q-255 275 -432 501z" />
<glyph unicode="l" horiz-adv-x="489" d="M193 0l6 399l-6 1028l106 11l-8 -1032l6 -406h-104z" />
<glyph unicode="m" horiz-adv-x="1624" d="M182 0l6 399l-4 525l101 12v-150h12q146 143 287 158q216 0 274 -166h10q71 70 150.5 113.5t150.5 52.5q141 0 216 -72.5t75 -205.5l-2 -263l2 -403h-106l8 645v7q0 92 -48 145q-50 55 -143 55q-148 0 -297 -162v-24l-2 -263l2 -403h-106l8 645q0 98 -49.5 152.5 t-140.5 54.5q-151 0 -301 -170v-276l4 -406h-107z" />
<glyph unicode="n" horiz-adv-x="1042" d="M182 0l6 399l-4 525l101 12v-150h10q146 142 289 158q142 0 217 -72q73 -71 73 -199v-7l-2 -263l5 -403h-107l6 645v8q0 93 -48 145q-50 54 -142 54q-74 0 -152.5 -44t-148.5 -126l-2 -276l6 -406h-107z" />
<glyph unicode="o" horiz-adv-x="1001" d="M100 455q0 232 108 361.5t300 129.5q184 0 287.5 -124t103.5 -345q0 -230 -108.5 -359.5t-301.5 -129.5q-184 0 -286.5 123.5t-102.5 343.5zM201 475q0 -196 77 -301.5t216 -105.5q146 0 225.5 101t79.5 288q0 196 -77.5 302.5t-217.5 106.5q-145 0 -224 -102.5 t-79 -288.5z" />
<glyph unicode="p" horiz-adv-x="1028" d="M182 -379l6 778l-6 525l103 12v-135h10q126 124 278 141q172 0 264.5 -117.5t92.5 -332.5q0 -241 -117 -372.5t-330 -131.5q-99 0 -198 18l2 -385h-105zM283 406l2 -291q115 -47 209 -47q159 0 248 107q87 106 87 304q0 178 -70 277q-68 96 -194 96q-148 0 -280 -156z " />
<glyph unicode="q" horiz-adv-x="1028" d="M98 455q0 234 117 362.5t324 128.5q95 0 235 -35l60 31l12 -8l-6 -547l4 -766h-103l2 461v43h-10q-60 -60 -118.5 -91.5t-133.5 -43.5q-180 0 -281.5 123t-101.5 342zM276 182q75 -100 203 -100q144 0 264 149l2 144l-2 444q-116 45 -213 45q-156 0 -244 -104 q-87 -103 -87 -295q0 -182 77 -283z" />
<glyph unicode="r" horiz-adv-x="636" d="M182 0l6 399l-4 525l101 12v-209h10q116 207 270 207q25 0 53 -4v-103l-14 -4q-38 6 -65 6q-69 0 -131 -58.5t-125 -188.5v-176l6 -406h-107z" />
<glyph unicode="s" horiz-adv-x="745" d="M78 55l14 92l14 9q108 -88 234 -88q95 0 152 51.5t57 120.5q0 42 -24.5 75.5t-63 56.5t-85.5 44t-94 45.5t-85.5 53.5t-63 74.5t-24.5 102.5q0 109 81.5 179.5t217.5 70.5q107 0 210 -43l-16 -88l-18 -4q-96 55 -187 55q-85 0 -137.5 -47.5t-52.5 -114.5 q0 -42 24.5 -75.5t63 -56.5t85.5 -44t94 -44.5t85.5 -52t63 -72t24.5 -99.5q0 -112 -86 -190t-227 -78q-138 0 -256 67z" />
<glyph unicode="t" horiz-adv-x="632" d="M66 864l8 66h127v186l90 37l12 -10l-2 -213h297l8 -10l-8 -66h-297l-6 -600q0 -88 35 -130t106 -42q73 0 154 47l12 -10l-10 -74q-101 -52 -184 -55q-106 12 -157.5 74.5t-51.5 179.5l4 184l-2 426h-127z" />
<glyph unicode="u" horiz-adv-x="1040" d="M166 924l106 12l-6 -647v-8q0 -93 44 -145q46 -54 136 -54q144 0 289 154v688l103 12l-7 -754q0 -53 16 -76.5t52 -23.5q35 0 76 20l14 -10l-12 -67q-52 -30 -105 -33q-118 3 -127 153h-12q-140 -140 -289 -155q-134 0 -206 72q-70 70 -70 199v7l2 224z" />
<glyph unicode="v" horiz-adv-x="849" d="M51 928l101 10l26 -111l232 -710h10l272 706l31 109h100l-356 -932h-115z" />
<glyph unicode="w" horiz-adv-x="1361" d="M51 928l99 10l24 -109l199 -706h10l227 702l31 107h107l22 -103l199 -706h10l229 702l29 107h98l-315 -932h-105l-221 786h-12l-256 -786h-107z" />
<glyph unicode="x" horiz-adv-x="866" d="M51 0l318 477l-306 449l117 12l39 -78l219 -319l209 315l45 76h107l-303 -457l319 -469l-115 -12l-45 84l-229 334l-227 -340l-41 -72h-107z" />
<glyph unicode="y" horiz-adv-x="851" d="M-41 -324l4 17q167 33 255 97.5t153 209.5l-342 928l104 10l29 -109l254 -698h12l260 690l31 111h102l-346 -914q-73 -191 -172 -279t-283 -128h-12q-31 27 -49 65z" />
<glyph unicode="z" horiz-adv-x="831" d="M72 66l559 788h-406l-123 -10l-10 12l12 80l140 -4h436l68 2l2 -68l-560 -786h426l134 8l8 -10l-13 -80l-155 2h-440l-76 -2z" />
<glyph unicode="{" horiz-adv-x="583" d="M100 496v61q92 15 135.5 60.5t43.5 125.5q0 43 -19.5 175.5t-19.5 195.5q0 225 215 225q34 0 92 -12l6 -10l-12 -64q-57 11 -78 11q-68 0 -101.5 -39.5t-33.5 -124.5q0 -54 20.5 -183.5t20.5 -175.5q0 -155 -136 -211v-6q136 -56 136 -211q0 -46 -20.5 -175t-20.5 -185 q0 -164 135 -164q26 0 78 10l12 -61l-6 -10q-47 -13 -92 -13q-215 0 -215 226q0 63 19.5 194t19.5 174q0 82 -43.5 128t-135.5 59z" />
<glyph unicode="|" horiz-adv-x="649" d="M281 -526v2146l79 6l9 -8l-2 -1032v-1123l-76 -4z" />
<glyph unicode="}" horiz-adv-x="583" d="M31 -262l12 63q52 -10 78 -10q68 0 101.5 39t33.5 123q0 56 -20.5 185t-20.5 175q0 155 135 211v6q-135 56 -135 209q0 48 20.5 177.5t20.5 183.5q0 85 -33.5 125.5t-101.5 40.5q-21 0 -78 -11l-12 62l6 10q44 12 92 12q215 0 215 -225q0 -63 -20.5 -195t-20.5 -176 q0 -158 180 -184v-61q-180 -29 -180 -187q0 -44 20.5 -175.5t20.5 -194.5q0 -226 -215 -226q-45 0 -92 13z" />
<glyph unicode="~" d="M123 485v15l141 131l17 8q44 -6 205.5 -52t195.5 -46q9 0 18.5 4t23.5 15t24 20t31.5 29t35.5 32h16l31 -39v-12l-143 -133l-17 -4q-49 4 -208.5 49t-190.5 45q-7 0 -13.5 -2t-15.5 -7.5t-16 -10.5t-19 -15.5l-20 -17.5t-23.5 -21.5t-25.5 -23.5h-16z" />
<glyph unicode="&#xa1;" horiz-adv-x="516" d="M186 -391l33 905l68 6l12 -14l-8 -893l-10 -12l-80 -4zM209 877q0 33 18.5 52t51.5 19q67 0 67 -67q0 -32 -19 -52t-51 -20t-49.5 18.5t-17.5 49.5z" />
<glyph unicode="&#xa2;" horiz-adv-x="786" d="M92 547q0 219 100 350t269 137l24 299h58l12 -12l-23 -291q118 -16 205 -76l-20 -71h-15q-73 53 -176 69l-65 -796h18q127 0 250 80l14 -7l-8 -69q-123 -80 -270 -80h-10l-27 -320h-57l-13 13l27 315q-137 29 -215 150.5t-78 308.5zM178 553q0 -151 56.5 -252t156.5 -133 l64 788q-127 -9 -202 -117.5t-75 -285.5z" />
<glyph unicode="&#xa3;" horiz-adv-x="821" d="M57 10l9 58q71 12 108 69.5t37 155.5l-2 319h-141l-9 11l9 57h141v217q0 154 76 234.5t221 80.5q98 0 213 -36l-8 -84l-9 -9q-98 56 -198 56q-101 0 -152 -59t-51 -171v-229h258l6 -10l-6 -58h-258l-2 -313q0 -143 -82 -213v-4h361l163 8l9 -12l-9 -80l-178 2h-497z" />
<glyph unicode="&#xa4;" horiz-adv-x="892" d="M72 1038l2 15l45 47h14l133 -137q68 59 166 59q91 0 162 -55l133 135h12l49 -47l-2 -15l-133 -131q60 -72 60 -168q0 -94 -60 -163l138 -132v-14l-48 -49l-14 2l-131 135q-74 -61 -166 -61q-93 0 -164 61l-131 -137h-14l-49 47l2 14l135 131q-61 70 -61 166q0 94 59 166z M221 741q0 -88 61.5 -149.5t149.5 -61.5t150.5 61.5t62.5 149.5t-62.5 149.5t-150.5 61.5t-149.5 -61.5t-61.5 -149.5z" />
<glyph unicode="&#xa5;" horiz-adv-x="940" d="M39 264l4 55h383l-2 50l-84 157h-295l-6 9l4 53h264l-229 424h100l21 -49l266 -484h10l289 482l24 51h101l-250 -424h260l8 -6l-6 -56h-297l-92 -157l-2 -50h389l6 -8l-4 -55h-391l4 -256h-92l4 256h-381z" />
<glyph unicode="&#xa6;" horiz-adv-x="649" d="M281 317l75 11l11 -15v-850l-76 -4l-10 15v843zM281 758v862l79 6l9 -8l-2 -860l-76 -8z" />
<glyph unicode="&#xa7;" horiz-adv-x="847" d="M82 -143l14 90l13 10q112 -92 235 -92q98 0 157.5 52.5t59.5 121.5q0 42 -25 82t-65 74t-88.5 68.5t-97.5 71.5t-89 76t-65 89t-25 104q0 81 51 151t140 115q-92 89 -92 189q0 107 87.5 182.5t219.5 75.5q104 0 207 -43l-17 -90l-18 -4q-96 59 -186 59t-145.5 -51.5 t-55.5 -116.5q0 -40 25 -79t65 -72.5t88.5 -67.5t97.5 -71t89 -76.5t65 -90.5t25 -106q0 -79 -50.5 -148.5t-140.5 -113.5q92 -92 92 -193q0 -108 -90 -186t-227 -78q-140 0 -254 68zM199 618q0 -36 17.5 -70t52 -67t67.5 -58t84 -61.5t80 -60.5q159 73 159 191 q0 39 -17.5 74.5t-52.5 69t-67 59t-83.5 62.5t-80.5 60q-159 -83 -159 -199z" />
<glyph unicode="&#xa8;" horiz-adv-x="798" d="M178 1229q0 32 19 50.5t51 18.5q31 0 48 -17t17 -48q0 -32 -18.5 -51t-50.5 -19q-31 0 -48.5 17.5t-17.5 48.5zM483 1229q0 32 19 50.5t51 18.5q31 0 48 -17t17 -48q0 -32 -18.5 -51t-50.5 -19q-31 0 -48.5 17.5t-17.5 48.5z" />
<glyph unicode="&#xa9;" horiz-adv-x="1398" d="M98 600q0 281 165 453t435 172t436 -172t166 -453t-166 -453t-436 -172t-435 172t-165 453zM154 600q0 -257 149 -413t395 -156t396.5 156.5t150.5 412.5t-150.5 412.5t-396.5 156.5t-395 -156t-149 -413zM403 604q0 168 82.5 258t237.5 90q105 0 197 -53l-17 -65l-10 -3 q-74 52 -172 52q-116 0 -176 -70t-60 -205q0 -136 59.5 -208t172.5 -72q98 0 188 55l10 -2l-8 -68q-96 -57 -196 -57q-150 0 -229 90t-79 258z" />
<glyph unicode="&#xaa;" horiz-adv-x="632" d="M76 860q0 117 125 141l217 46l4 96q0 108 -113 108q-80 0 -186 -80l-10 5l-15 65q111 82 226 82q90 0 139 -42.5t49 -119.5q0 -19 -6 -165t-6 -162q0 -62 39 -62q25 0 45 14l10 -6l-10 -59q-36 -25 -76 -25q-42 0 -63 23t-27 76h-6q-76 -88 -162 -101q-83 1 -128.5 45 t-45.5 121zM166 868q0 -46 26.5 -73t73.5 -27q34 0 73.5 24t72.5 66l4 135l-176 -41q-74 -16 -74 -84z" />
<glyph unicode="&#xab;" horiz-adv-x="782" d="M41 442v29l307 350l53 -33v-16l-272 -313l272 -314v-16l-53 -33zM362 442v29l308 350l53 -33v-16l-272 -313l272 -314v-16l-53 -33z" />
<glyph unicode="&#xac;" d="M66 516l6 72h776l12 -15v-440l-69 -6l-11 10v371h-706z" />
<glyph unicode="&#xad;" horiz-adv-x="632" d="M61 457v71l498 68l12 -10v-72l-497 -70z" />
<glyph unicode="&#xae;" horiz-adv-x="892" d="M80 1073q0 165 100 265t266 100t266.5 -100.5t100.5 -264.5q0 -167 -100.5 -267.5t-266.5 -100.5t-266 100.5t-100 267.5zM127 1073q0 -146 88.5 -233.5t233.5 -87.5q143 0 231 87.5t88 233.5q0 144 -88 231t-231 87q-145 0 -233.5 -87t-88.5 -231zM322 889v395h135 q127 0 127 -117q0 -81 -82 -120q57 -84 108 -146l-2 -8q-9 -4 -57 -10l-6 4q-41 52 -96 145h-72v-18l4 -125h-59zM379 1083l76 -2q69 21 69 82q0 34 -22.5 53.5t-63.5 20.5l-57 -2z" />
<glyph unicode="&#xaf;" horiz-adv-x="798" d="M100 1206l6 66h584l8 -8l-6 -68h-583z" />
<glyph unicode="&#xb0;" horiz-adv-x="602" d="M47 1069q0 106 74 179t180 73q105 0 178.5 -73.5t73.5 -178.5q0 -104 -73.5 -176t-178.5 -72q-106 0 -180 72t-74 176zM109 1069q0 -75 57 -130.5t135 -55.5q77 0 134 55.5t57 130.5q0 78 -57 134.5t-134 56.5q-78 0 -135 -56.5t-57 -134.5z" />
<glyph unicode="&#xb1;" d="M72 -154l6 72h823l10 -10l-6 -70h-825zM72 516l6 72h375v373l69 8l10 -11v-370h371l10 -10l-8 -70h-373v-375l-69 -6l-10 10v371h-373z" />
<glyph unicode="&#xb2;" horiz-adv-x="702" d="M86 672v61l209 250q64 80 90.5 115t50 80.5t23.5 78.5q0 44 -33 74.5t-92 30.5q-56 0 -111 -29.5t-98 -81.5h-12l-17 74q117 117 258 117q89 0 146 -46t57 -120q0 -59 -42.5 -130.5t-139.5 -189.5l-162 -204l4 -4h301l129 4l4 -11l-10 -75l-149 4h-342l-58 -2z" />
<glyph unicode="&#xb3;" horiz-adv-x="616" d="M66 1362q101 82 213 82q92 0 148 -46t56 -122q0 -55 -35.5 -107t-99.5 -82v-6q168 -42 168 -188q0 -102 -84.5 -165.5t-220.5 -63.5q-76 0 -131 14l-8 67l8 9q64 -15 131 -15q97 0 154 42t57 114q0 65 -46 100.5t-134 38.5h-80l-6 8l2 66h61q59 0 112.5 44.5t53.5 107.5 q0 49 -33.5 77.5t-89.5 28.5q-80 0 -170 -72h-10z" />
<glyph unicode="&#xb4;" horiz-adv-x="798" d="M213 1112q157 130 319 289l13 -2l43 -56l-2 -14q-112 -97 -324 -268l-14 2z" />
<glyph unicode="&#xb5;" horiz-adv-x="1034" d="M166 -379l2 778l-2 525l100 12v-660q2 -93 50 -143.5t135 -50.5q140 0 288 154v688l101 12l-4 -748q-3 -114 65 -114q39 0 76 26l14 -8l-14 -67q-51 -33 -107 -33q-57 0 -88.5 35.5t-38.5 113.5h-12q-139 -136 -295 -151q-107 0 -170 57v-426h-100z" />
<glyph unicode="&#xb6;" horiz-adv-x="956" d="M92 920q0 185 109 287t311 102h371l12 -13l-10 -75h-160l-2 -861l2 -102q0 -126 -69.5 -223.5t-223.5 -184.5l-35 52v16q118 73 173 153t55 177v88l-2 887h-134q-138 -9 -213 -89.5t-75 -218.5q0 -139 81 -231t234 -127l-31 -68q-189 34 -291 143t-102 288z" />
<glyph unicode="&#xb7;" horiz-adv-x="471" d="M166 494q0 32 19 51.5t51 19.5t49.5 -18t17.5 -49q0 -32 -19 -52t-51 -20t-49.5 18.5t-17.5 49.5z" />
<glyph unicode="&#xb8;" horiz-adv-x="798" d="M258 -315l14 59l9 2q27 -32 50.5 -47.5t57.5 -15.5q33 0 53.5 16t20.5 45q0 20 -11.5 32.5t-35.5 26.5l-94 58l51 170h69l-43 -140l66 -41q74 -43 74 -108q0 -55 -41.5 -89t-104.5 -34q-81 0 -135 66z" />
<glyph unicode="&#xb9;" horiz-adv-x="512" d="M31 1292v76l272 78l12 -12l-2 -494l2 -270h-96l2 258v407l-180 -49z" />
<glyph unicode="&#xba;" horiz-adv-x="684" d="M72 1001q0 154 72.5 238t205.5 84q127 0 195.5 -80t68.5 -227q0 -154 -72.5 -239t-205.5 -85q-126 0 -195 80.5t-69 228.5zM166 1010q0 -244 176 -244q87 0 133.5 61t46.5 181q0 119 -45.5 181t-130.5 62q-88 0 -134 -61t-46 -180z" />
<glyph unicode="&#xbb;" horiz-adv-x="765" d="M49 131v16l273 314l-273 313v17l53 32l308 -346v-28l-308 -351zM369 147l274 314l-274 313l2 17l53 32l305 -346v-28l-305 -351l-53 33z" />
<glyph unicode="&#xbc;" horiz-adv-x="1396" d="M31 1167v76l272 78l12 -12l-2 -494l2 -270h-96l2 258v407l-180 -49zM84 -137l979 1517l47 -26l8 -23l-979 -1515l-47 24zM750 229v64l346 473h88l-2 -467h131l8 -10l-8 -70l-121 4h-10l6 -215l-6 -8l-76 -4l-6 4l2 223h-258l-86 -4zM838 299h264v350h-8z" />
<glyph unicode="&#xbd;" horiz-adv-x="1409" d="M31 1167v76l272 78l12 -12l-2 -494l2 -270h-96l2 258v407l-180 -49zM84 -137l979 1517l47 -26l8 -23l-979 -1515l-47 24zM795 2v61l209 250q90 112 126.5 169.5t36.5 105.5q0 44 -33 74t-92 30q-56 0 -110.5 -29t-97.5 -81h-13l-16 73q117 117 258 117q89 0 146 -46 t57 -120q0 -59 -42.5 -129t-140.5 -190l-161 -205l4 -4h301l129 4l4 -10l-10 -76l-150 4h-342l-57 -2z" />
<glyph unicode="&#xbe;" horiz-adv-x="1466" d="M66 1237q101 82 213 82q92 0 148 -46t56 -122q0 -55 -35.5 -106.5t-99.5 -81.5v-7q168 -42 168 -188q0 -102 -84.5 -165.5t-220.5 -63.5q-76 0 -131 14l-8 68l8 8q64 -15 131 -15q97 0 154 42t57 114q0 65 -46 100.5t-134 38.5h-80l-6 9l2 65h61q59 0 112.5 44.5 t53.5 107.5q0 49 -33.5 77.5t-89.5 28.5q-80 0 -170 -72h-10zM156 -137l979 1517l47 -26l8 -23l-979 -1515l-47 24zM821 229v64l346 473h88l-2 -467h131l9 -10l-9 -70l-120 4h-11l7 -215l-7 -8l-75 -4l-7 4l3 223h-259l-86 -4zM909 299h265v350h-9z" />
<glyph unicode="&#xbf;" horiz-adv-x="669" d="M12 -86q0 161 166 268l182 123l2 6l-10 209l78 8l10 -12l13 -229l-11 -21l-200 -127q-133 -84 -133 -211q0 -110 107 -175t314 -77l9 -12l-23 -61l-16 -9q-235 17 -361.5 100t-126.5 220zM319 877q0 33 18.5 52t51.5 19q32 0 50 -17.5t18 -49.5t-19 -52t-51 -20 q-31 0 -49.5 18.5t-18.5 49.5z" />
<glyph unicode="&#xc0;" horiz-adv-x="1161" d="M33 0l499 1309h121l457 -1309h-113l-26 111l-99 282l-309 4l-282 -4l-107 -278l-31 -115h-110zM317 487l256 -2l267 2l-244 699h-12zM369 1679l30 62l13 4q199 -116 379 -201l-23 -53l-14 -8q-270 126 -379 182z" />
<glyph unicode="&#xc1;" horiz-adv-x="1161" d="M33 0l499 1309h121l457 -1309h-113l-26 111l-99 282l-309 4l-282 -4l-107 -278l-31 -115h-110zM317 487l256 -2l267 2l-244 699h-12zM430 1540q215 105 379 203l14 -4l29 -62l-4 -14q-169 -88 -379 -182l-16 6z" />
<glyph unicode="&#xc2;" horiz-adv-x="1161" d="M33 0l499 1309h121l457 -1309h-113l-26 111l-99 282l-309 4l-282 -4l-107 -278l-31 -115h-110zM317 487l256 -2l267 2l-244 699h-12zM340 1559q74 50 221 170h39q165 -130 223 -170l-24 -52h-15q-95 63 -202 140q-91 -65 -203 -140h-14z" />
<glyph unicode="&#xc3;" horiz-adv-x="1161" d="M33 0l499 1309h121l457 -1309h-113l-26 111l-99 282l-309 4l-282 -4l-107 -278l-31 -115h-110zM276 1556v13l117 121l17 4q42 -4 167 -40t150 -36q8 0 17 4t20 13.5t20.5 18.5t26 25.5t29.5 28.5h10l37 -37v-12l-117 -121l-16 -6q-40 5 -166.5 41.5t-153.5 36.5 q-12 0 -25.5 -10t-40 -37t-44.5 -43h-13zM317 487l256 -2l267 2l-244 699h-12z" />
<glyph unicode="&#xc4;" horiz-adv-x="1161" d="M33 0l499 1309h121l457 -1309h-113l-26 111l-99 282l-309 4l-282 -4l-107 -278l-31 -115h-110zM317 487l256 -2l267 2l-244 699h-12zM362 1606q0 32 19 50.5t51 18.5q31 0 48.5 -17t17.5 -48q0 -32 -19 -51t-51 -19q-31 0 -48.5 17.5t-17.5 48.5zM668 1606 q0 32 18.5 50.5t50.5 18.5q31 0 48.5 -17t17.5 -48q0 -32 -19 -51t-51 -19q-31 0 -48 17.5t-17 48.5z" />
<glyph unicode="&#xc5;" horiz-adv-x="1161" d="M33 0l499 1309h121l457 -1309h-113l-26 111l-99 282l-309 4l-282 -4l-107 -278l-31 -115h-110zM317 487l256 -2l267 2l-244 699h-12zM420 1620q0 70 43.5 113t116.5 43t115 -44.5t42 -109.5q0 -74 -46.5 -117t-112.5 -43q-67 0 -112.5 42.5t-45.5 115.5zM481 1622 q0 -46 27 -72t70 -26t71.5 25t28.5 69q0 43 -25.5 69.5t-74.5 26.5q-45 0 -71 -25t-26 -67z" />
<glyph unicode="&#xc6;" horiz-adv-x="1638" d="M-31 0l721 1309h694l9 -13l-13 -84l-336 7h-208l86 -551l460 86l11 -9v-79l-457 -84l76 -492h241l336 6l8 -12l-12 -84h-670l-10 111l-71 450l-512 -102l-191 -344l-47 -115h-115zM379 563l440 84l-86 539h-8z" />
<glyph unicode="&#xc7;" horiz-adv-x="1069" d="M88 647q0 322 146.5 497t416.5 175q205 0 361 -109l-25 -96l-16 -2q-144 115 -324 115q-217 0 -333.5 -147.5t-116.5 -426.5q0 -278 113 -424.5t323 -146.5q95 0 188 33.5t170 95.5l17 -6l-9 -101q-161 -105 -333 -114l-31 -99l65 -41q74 -43 74 -108q0 -55 -41.5 -89 t-103.5 -34q-81 0 -135 66l14 59l8 2q27 -32 51 -47.5t58 -15.5q33 0 53 16t20 45q0 20 -11.5 32.5t-35.5 26.5l-94 58l39 127q-245 11 -376.5 181t-131.5 478z" />
<glyph unicode="&#xc8;" horiz-adv-x="960" d="M207 0l6 397l-6 912h688l8 -13l-12 -84l-305 5l-271 -3l-4 -493l256 -2l217 2l11 -10l-13 -84l-471 2l-2 -226l4 -311l265 -2l321 6l8 -12l-10 -84h-690zM344 1681l29 62l14 4q164 -98 379 -203l-23 -53l-16 -6q-210 94 -379 182z" />
<glyph unicode="&#xc9;" horiz-adv-x="960" d="M207 0l6 397l-6 912h688l8 -13l-12 -84l-305 5l-271 -3l-4 -493l256 -2l217 2l11 -10l-13 -84l-471 2l-2 -226l4 -311l265 -2l321 6l8 -12l-10 -84h-690zM401 1540q215 105 379 203l15 -4l28 -62l-4 -14q-169 -88 -379 -182l-16 6z" />
<glyph unicode="&#xca;" horiz-adv-x="960" d="M207 0l6 397l-6 912h688l8 -13l-12 -84l-305 5l-271 -3l-4 -493l256 -2l217 2l11 -10l-13 -84l-471 2l-2 -226l4 -311l265 -2l321 6l8 -12l-10 -84h-690zM309 1559q106 70 221 170h39q117 -96 226 -170l-25 -52h-14q-77 50 -203 140l-203 -140h-16z" />
<glyph unicode="&#xcb;" horiz-adv-x="960" d="M207 0l6 397l-6 912h688l8 -13l-12 -84l-305 5l-271 -3l-4 -493l256 -2l217 2l11 -10l-13 -84l-471 2l-2 -226l4 -311l265 -2l321 6l8 -12l-10 -84h-690zM334 1606q0 32 18.5 50.5t50.5 18.5q31 0 48.5 -17t17.5 -48q0 -32 -19 -51t-51 -19q-31 0 -48 17.5t-17 48.5z M639 1606q0 32 19 50.5t51 18.5q31 0 48 -17t17 -48q0 -32 -18.5 -51t-50.5 -19q-31 0 -48.5 17.5t-17.5 48.5z" />
<glyph unicode="&#xcc;" horiz-adv-x="522" d="M51 1681l29 62l14 4q164 -98 379 -203l-22 -53l-17 -6q-210 94 -379 182zM207 0l6 397l-6 912h108l-6 -906l4 -403h-106z" />
<glyph unicode="&#xcd;" horiz-adv-x="522" d="M109 1540q210 102 378 203l15 -4l28 -62l-4 -14q-169 -88 -379 -182l-16 6zM207 0l6 397l-6 912h108l-6 -906l4 -403h-106z" />
<glyph unicode="&#xce;" horiz-adv-x="522" d="M20 1559q80 54 222 170h39q165 -130 223 -170l-25 -52h-14q-112 75 -203 140q-91 -65 -203 -140h-14zM207 0l6 397l-6 912h108l-6 -906l4 -403h-106z" />
<glyph unicode="&#xd0;" horiz-adv-x="1353" d="M20 639l5 70h225l-4 600h2l444 8q278 0 427 -160t149 -459q0 -342 -158.5 -525t-452.5 -183q-154 0 -409 10h-2l6 397l-2 232h-223zM350 403l4 -311q192 -12 318 -12q235 0 361 153.5t126 446.5q0 269 -121 408t-352 139q-122 0 -332 -10l-2 -508h322l6 -11l-4 -69h-326 v-226z" />
<glyph unicode="&#xd1;" horiz-adv-x="1386" d="M207 0l6 389l-4 920h110l748 -1131h12v1125l103 8l-8 -938l2 -373h-111l-748 1130h-12l-2 -710l4 -420h-100zM381 1556v13l117 121l16 4q42 -4 167 -40t150 -36q8 0 17 4t20 13.5t20.5 18.5t26 25.5t29.5 28.5h10l37 -37v-12l-117 -121l-16 -6q-40 5 -166 41.5t-153 36.5 q-12 0 -25.5 -10t-41 -37.5t-44.5 -42.5h-12z" />
<glyph unicode="&#xd2;" horiz-adv-x="1292" d="M88 647q0 324 148.5 499t425.5 175q262 0 403 -167t141 -476q0 -333 -148 -511.5t-425 -178.5q-262 0 -403.5 171t-141.5 488zM195 657q0 -285 112.5 -432t329.5 -147q225 0 342 149t117 437q0 279 -113 422t-332 143q-224 0 -340 -145.5t-116 -426.5zM438 1681l29 62 l14 4q164 -98 379 -203l-22 -53l-17 -6q-210 94 -379 182z" />
<glyph unicode="&#xd3;" horiz-adv-x="1292" d="M88 647q0 324 148.5 499t425.5 175q262 0 403 -167t141 -476q0 -333 -148 -511.5t-425 -178.5q-262 0 -403.5 171t-141.5 488zM195 657q0 -285 112.5 -432t329.5 -147q225 0 342 149t117 437q0 279 -113 422t-332 143q-224 0 -340 -145.5t-116 -426.5zM496 1540 q210 102 378 203l15 -4l29 -62l-5 -14q-176 -91 -378 -182l-17 6z" />
<glyph unicode="&#xd4;" horiz-adv-x="1292" d="M88 647q0 324 148.5 499t425.5 175q262 0 403 -167t141 -476q0 -333 -148 -511.5t-425 -178.5q-262 0 -403.5 171t-141.5 488zM195 657q0 -285 112.5 -432t329.5 -147q225 0 342 149t117 437q0 279 -113 422t-332 143q-224 0 -340 -145.5t-116 -426.5zM408 1559 q74 50 221 170h39q165 -130 223 -170l-25 -52h-14q-112 75 -203 140q-91 -65 -203 -140h-14z" />
<glyph unicode="&#xd5;" horiz-adv-x="1292" d="M88 647q0 324 148.5 499t425.5 175q262 0 403 -167t141 -476q0 -333 -148 -511.5t-425 -178.5q-262 0 -403.5 171t-141.5 488zM195 657q0 -285 112.5 -432t329.5 -147q225 0 342 149t117 437q0 279 -113 422t-332 143q-224 0 -340 -145.5t-116 -426.5zM342 1556v13 l117 121l16 4q42 -4 167.5 -40t150.5 -36q10 0 22.5 8t22.5 17t31 30t36 35h10l37 -37v-12l-116 -121l-17 -6q-40 5 -166 41.5t-153 36.5q-12 0 -25.5 -10t-41 -37.5t-44.5 -42.5h-12z" />
<glyph unicode="&#xd7;" d="M172 272v13l264 264l-264 260v14l53 45l267 -264l264 264l55 -45v-14l-262 -260l262 -264v-13l-55 -47l-264 267l-267 -267z" />
<glyph unicode="&#xd8;" horiz-adv-x="1292" d="M88 647q0 324 148.5 499t425.5 175q126 0 221 -39l86 186l67 -22l8 -14l-86 -187q122 -74 185 -218t63 -349q0 -333 -148 -511.5t-425 -178.5q-134 0 -240 47l-106 -230l-68 23l-6 10l109 236q-114 78 -174 224t-60 349zM195 657q0 -353 170 -491l477 1028 q-84 35 -191 35q-224 0 -340 -145.5t-116 -426.5zM434 121q85 -43 203 -43q225 0 342 149t117 437q0 356 -183 489z" />
<glyph unicode="&#xd9;" horiz-adv-x="1267" d="M162 475l2 184l-2 650h106l-4 -824q-1 -196 93 -298.5t276 -102.5t276.5 99.5t94.5 291.5l-5 834h107l-2 -668l-2 -158q6 -234 -119 -363.5t-356 -129.5q-227 0 -347 125t-118 360zM430 1681l29 62l14 4q164 -98 379 -203l-23 -53l-16 -6q-210 94 -379 182z" />
<glyph unicode="&#xda;" horiz-adv-x="1267" d="M162 475l2 184l-2 650h106l-4 -824q-1 -196 93 -298.5t276 -102.5t276.5 99.5t94.5 291.5l-5 834h107l-2 -668l-2 -158q6 -234 -119 -363.5t-356 -129.5q-227 0 -347 125t-118 360zM489 1540q215 105 379 203l15 -4l28 -62l-4 -14q-169 -88 -379 -182l-16 6z" />
<glyph unicode="&#xdb;" horiz-adv-x="1267" d="M162 475l2 184l-2 650h106l-4 -824q-1 -196 93 -298.5t276 -102.5t276.5 99.5t94.5 291.5l-5 834h107l-2 -668l-2 -158q6 -234 -119 -363.5t-356 -129.5q-227 0 -347 125t-118 360zM399 1559q80 54 222 170h38q159 -126 224 -170l-25 -52h-14q-112 75 -203 140 q-91 -65 -203 -140h-14z" />
<glyph unicode="&#xdc;" horiz-adv-x="1267" d="M162 475l2 184l-2 650h106l-4 -824q-1 -196 93 -298.5t276 -102.5t276.5 99.5t94.5 291.5l-5 834h107l-2 -668l-2 -158q6 -234 -119 -363.5t-356 -129.5q-227 0 -347 125t-118 360zM422 1606q0 32 19 50.5t51 18.5q31 0 48 -17t17 -48q0 -32 -19 -51t-51 -19 q-31 0 -48 17.5t-17 48.5zM727 1606q0 32 19 50.5t51 18.5q31 0 48 -17t17 -48q0 -32 -18.5 -51t-50.5 -19q-31 0 -48.5 17.5t-17.5 48.5z" />
<glyph unicode="&#xde;" horiz-adv-x="1038" d="M207 0l4 397l-4 912h108l-2 -238l244 2q188 0 287.5 -97.5t99.5 -281.5q0 -214 -120 -330t-345 -116l-168 -2l2 -246h-106zM311 340l230 -4q143 22 219 112t76 242q0 139 -74.5 213t-216.5 80l-232 -4l-2 -576v-63z" />
<glyph unicode="&#xdf;" horiz-adv-x="1110" d="M82 864l8 66h139v119q0 187 99 290t274 103q144 0 224.5 -67t80.5 -183q0 -47 -14 -87.5t-36 -70t-48.5 -56.5t-53 -51.5t-48.5 -49.5t-36 -57t-14 -68q0 -47 23.5 -86t60.5 -67t82 -54t90 -53.5t82 -59t60.5 -76.5t23.5 -100q0 -113 -86 -190.5t-229 -77.5 q-137 0 -252 67l14 92l13 9q108 -88 231 -88q96 0 153.5 50.5t57.5 121.5q0 42 -23.5 78t-60.5 63t-82 53t-90 55t-82 62t-60.5 81t-23.5 105q0 61 26.5 110t64 83.5t75 67.5t64 79.5t26.5 102.5q0 86 -57.5 133t-157.5 47q-129 0 -199.5 -78t-70.5 -225l-4 -658l6 -399 h-107l6 389l-2 465h-139z" />
<glyph unicode="&#xe0;" horiz-adv-x="927" d="M100 231q0 165 181 207l340 80l6 166q0 87 -48 133.5t-135 46.5q-130 0 -284 -133l-15 6l-16 76q169 133 330 133q125 0 194.5 -62.5t69.5 -176.5q0 -30 -11.5 -264.5t-11.5 -264.5q0 -52 16.5 -74t53.5 -22q35 0 76 20l14 -10l-12 -67q-52 -30 -105 -33q-123 3 -129 153 h-10q-117 -133 -242 -157q-124 0 -193 64.5t-69 178.5zM197 244q0 -78 43 -122t118 -44q124 0 252 166l8 198l-315 -75q-106 -24 -106 -123zM258 1343l43 56l12 2q157 -154 320 -289l-35 -49l-14 -2q-212 171 -324 268z" />
<glyph unicode="&#xe1;" horiz-adv-x="927" d="M100 231q0 165 181 207l340 80l6 166q0 87 -48 133.5t-135 46.5q-130 0 -284 -133l-15 6l-16 76q169 133 330 133q125 0 194.5 -62.5t69.5 -176.5q0 -30 -11.5 -264.5t-11.5 -264.5q0 -52 16.5 -74t53.5 -22q35 0 76 20l14 -10l-12 -67q-52 -30 -105 -33q-123 3 -129 153 h-10q-117 -133 -242 -157q-124 0 -193 64.5t-69 178.5zM197 244q0 -78 43 -122t118 -44q124 0 252 166l8 198l-315 -75q-106 -24 -106 -123zM317 1112q163 135 320 289l12 -2l43 -56l-2 -14q-126 -109 -323 -268l-15 2z" />
<glyph unicode="&#xe2;" horiz-adv-x="927" d="M100 231q0 165 181 207l340 80l6 166q0 87 -48 133.5t-135 46.5q-130 0 -284 -133l-15 6l-16 76q169 133 330 133q125 0 194.5 -62.5t69.5 -176.5q0 -30 -11.5 -264.5t-11.5 -264.5q0 -52 16.5 -74t53.5 -22q35 0 76 20l14 -10l-12 -67q-52 -30 -105 -33q-123 3 -129 153 h-10q-117 -133 -242 -157q-124 0 -193 64.5t-69 178.5zM197 244q0 -78 43 -122t118 -44q124 0 252 166l8 198l-315 -75q-106 -24 -106 -123zM197 1114q99 105 229 266h43q135 -169 229 -266l-32 -47h-15q-124 127 -205 225q-98 -118 -202 -225h-15z" />
<glyph unicode="&#xe3;" horiz-adv-x="927" d="M100 231q0 165 181 207l340 80l6 166q0 87 -48 133.5t-135 46.5q-130 0 -284 -133l-15 6l-16 76q169 133 330 133q125 0 194.5 -62.5t69.5 -176.5q0 -30 -11.5 -264.5t-11.5 -264.5q0 -52 16.5 -74t53.5 -22q35 0 76 20l14 -10l-12 -67q-52 -30 -105 -33q-123 3 -129 153 h-10q-117 -133 -242 -157q-124 0 -193 64.5t-69 178.5zM139 1180v12l117 121l16 4q42 -4 167.5 -40t150.5 -36q10 0 22.5 8t22.5 17t31 30t36 35h11l37 -37v-12l-117 -121l-17 -6q-40 5 -166 41.5t-153 36.5q-12 0 -25.5 -10t-41 -37.5t-44.5 -42.5h-12zM197 244 q0 -78 43 -122t118 -44q124 0 252 166l8 198l-315 -75q-106 -24 -106 -123z" />
<glyph unicode="&#xe4;" horiz-adv-x="927" d="M100 231q0 165 181 207l340 80l6 166q0 87 -48 133.5t-135 46.5q-130 0 -284 -133l-15 6l-16 76q169 133 330 133q125 0 194.5 -62.5t69.5 -176.5q0 -30 -11.5 -264.5t-11.5 -264.5q0 -52 16.5 -74t53.5 -22q35 0 76 20l14 -10l-12 -67q-52 -30 -105 -33q-123 3 -129 153 h-10q-117 -133 -242 -157q-124 0 -193 64.5t-69 178.5zM197 244q0 -78 43 -122t118 -44q124 0 252 166l8 198l-315 -75q-106 -24 -106 -123zM225 1229q0 32 19 50.5t51 18.5q31 0 48 -17t17 -48q0 -32 -18.5 -51t-50.5 -19q-31 0 -48.5 17.5t-17.5 48.5zM530 1229 q0 32 19 50.5t51 18.5q31 0 48.5 -17t17.5 -48q0 -32 -19 -51t-51 -19q-31 0 -48.5 17.5t-17.5 48.5z" />
<glyph unicode="&#xe5;" horiz-adv-x="927" d="M100 231q0 165 181 207l340 80l6 166q0 87 -48 133.5t-135 46.5q-130 0 -284 -133l-15 6l-16 76q169 133 330 133q125 0 194.5 -62.5t69.5 -176.5q0 -30 -11.5 -264.5t-11.5 -264.5q0 -52 16.5 -74t53.5 -22q35 0 76 20l14 -10l-12 -67q-52 -30 -105 -33q-123 3 -129 153 h-10q-117 -133 -242 -157q-124 0 -193 64.5t-69 178.5zM197 244q0 -78 43 -122t118 -44q124 0 252 166l8 198l-315 -75q-106 -24 -106 -123zM283 1243q0 70 43 113t116 43t115.5 -44.5t42.5 -109.5q0 -73 -47 -116.5t-113 -43.5q-67 0 -112 42.5t-45 115.5zM344 1245 q0 -46 27 -72t69 -26q43 0 72 25t29 69q0 43 -26 69.5t-75 26.5q-45 0 -70.5 -25t-25.5 -67z" />
<glyph unicode="&#xe6;" horiz-adv-x="1374" d="M92 233q0 174 180 209l338 68v174q0 87 -45 133.5t-129 46.5q-127 0 -284 -133l-15 6l-16 76q168 133 328 133q101 0 161 -48t74 -134q111 180 307 180q143 0 228 -92t86 -262l-15 -19l-594 -116q5 -185 80.5 -284t214.5 -99q69 0 138.5 25t123.5 69l15 -8l-13 -88 q-129 -82 -272 -82q-114 0 -197 55t-127 158q-76 -95 -146.5 -145.5t-152.5 -67.5q-125 0 -196.5 66t-71.5 179zM188 242q0 -75 45.5 -118.5t120.5 -43.5q65 0 127 43t148 145q-16 85 -19 168l-303 -63q-64 -15 -91.5 -46.5t-27.5 -84.5zM696 526l510 107q-9 108 -69 170.5 t-154 62.5q-120 0 -203.5 -93t-83.5 -222v-25z" />
<glyph unicode="&#xe7;" horiz-adv-x="790" d="M100 459q0 223 105.5 355t286.5 132q67 0 136.5 -19t121.5 -50l-23 -93l-16 -2q-106 74 -224 74q-132 0 -209 -105t-77 -288q0 -178 78 -282.5t213 -104.5q129 0 245 78l15 -9l-11 -90q-104 -58 -229 -67l-31 -97l66 -41q74 -43 74 -108q0 -55 -41.5 -89t-104.5 -34 q-81 0 -135 66l14 59l8 2q27 -32 51 -47.5t58 -15.5q33 0 53.5 16t20.5 45q0 20 -11.5 32.5t-35.5 26.5l-95 58l39 129q-159 13 -250.5 139t-91.5 330z" />
<glyph unicode="&#xe8;" horiz-adv-x="907" d="M100 457q0 225 112 356t300 131q147 0 230 -90.5t83 -249.5q0 -38 -4 -78l-24 -20l-596 -10v-33q0 -181 79 -284t226 -103q142 0 264 92l14 -6l-12 -92q-129 -82 -274 -82q-186 0 -292 126t-106 343zM209 573l516 15l4 26q0 121 -60 185.5t-165 64.5q-118 0 -195 -77 t-100 -214zM301 1343l43 56l12 2q157 -154 320 -289l-35 -49l-14 -2q-212 171 -324 268z" />
<glyph unicode="&#xe9;" horiz-adv-x="907" d="M100 457q0 225 112 356t300 131q147 0 230 -90.5t83 -249.5q0 -38 -4 -78l-24 -20l-596 -10v-33q0 -181 79 -284t226 -103q142 0 264 92l14 -6l-12 -92q-129 -82 -274 -82q-186 0 -292 126t-106 343zM209 573l516 15l4 26q0 121 -60 185.5t-165 64.5q-118 0 -195 -77 t-100 -214zM360 1112q163 135 320 289l12 -2l43 -56l-2 -14q-126 -109 -323 -268l-15 2z" />
<glyph unicode="&#xea;" horiz-adv-x="907" d="M100 457q0 225 112 356t300 131q147 0 230 -90.5t83 -249.5q0 -38 -4 -78l-24 -20l-596 -10v-33q0 -181 79 -284t226 -103q142 0 264 92l14 -6l-12 -92q-129 -82 -274 -82q-186 0 -292 126t-106 343zM209 573l516 15l4 26q0 121 -60 185.5t-165 64.5q-118 0 -195 -77 t-100 -214zM240 1114q99 105 229 266h43q135 -169 229 -266l-32 -47h-15q-124 127 -205 225q-98 -118 -202 -225h-15z" />
<glyph unicode="&#xeb;" horiz-adv-x="907" d="M100 457q0 225 112 356t300 131q147 0 230 -90.5t83 -249.5q0 -38 -4 -78l-24 -20l-596 -10v-33q0 -181 79 -284t226 -103q142 0 264 92l14 -6l-12 -92q-129 -82 -274 -82q-186 0 -292 126t-106 343zM209 573l516 15l4 26q0 121 -60 185.5t-165 64.5q-118 0 -195 -77 t-100 -214zM268 1229q0 32 19 50.5t51 18.5q31 0 48 -17t17 -48q0 -32 -18.5 -51t-50.5 -19q-31 0 -48.5 17.5t-17.5 48.5zM573 1229q0 32 19 50.5t51 18.5q31 0 48.5 -17t17.5 -48q0 -32 -19 -51t-51 -19q-31 0 -48.5 17.5t-17.5 48.5z" />
<glyph unicode="&#xec;" horiz-adv-x="473" d="M51 1343l43 56l12 2q157 -154 320 -289l-35 -49l-14 -2q-212 171 -324 268zM182 0l6 399l-6 525l107 12l-8 -530l6 -406h-105z" />
<glyph unicode="&#xed;" horiz-adv-x="473" d="M111 1112q157 130 319 289l12 -2l43 -56l-2 -14q-126 -109 -323 -268l-15 2zM182 0l6 399l-6 525l107 12l-8 -530l6 -406h-105z" />
<glyph unicode="&#xee;" horiz-adv-x="473" d="M-12 1114q99 105 229 266h43q135 -169 229 -266l-32 -47h-15q-117 120 -204 225q-93 -112 -203 -225h-15zM182 0l6 399l-6 525l107 12l-8 -530l6 -406h-105z" />
<glyph unicode="&#xf0;" horiz-adv-x="1001" d="M100 459q0 224 108.5 351.5t301.5 127.5q118 0 213 -53q-76 162 -209 280l-256 -121l-12 7l-23 57l230 109q-135 98 -293 161v15l57 49h10q178 -73 314 -185l243 115l13 -6l24 -57l-221 -105q143 -137 219 -316.5t76 -387.5q0 -243 -103.5 -377.5t-293.5 -134.5 q-184 0 -291 125t-107 346zM195 459q0 -188 82 -292t225 -104q147 0 223 110.5t76 322.5q0 143 -33 258q-106 106 -254 106q-152 0 -235.5 -105t-83.5 -296z" />
<glyph unicode="&#xf1;" horiz-adv-x="1042" d="M182 0l4 399l-4 525l103 12v-150h10q69 68 144.5 109.5t142.5 48.5q143 0 217.5 -72.5t74.5 -205.5l-2 -263l5 -403h-109l8 645q0 98 -49.5 152.5t-142.5 54.5q-152 0 -299 -170l-2 -276l4 -406h-105zM244 1180v12l116 121l17 4q42 -4 167 -40t150 -36q8 0 17 4t20 13.5 t20.5 18.5t26 25.5t29.5 28.5h10l37 -37v-12l-117 -121l-16 -6q-40 5 -166.5 41.5t-153.5 36.5q-12 0 -25.5 -10t-40 -37t-44.5 -43h-12z" />
<glyph unicode="&#xf2;" horiz-adv-x="1001" d="M100 455q0 232 108 361.5t302 129.5q183 0 286 -124t103 -345q0 -230 -108.5 -359.5t-301.5 -129.5q-184 0 -286.5 123.5t-102.5 343.5zM201 475q0 -197 77.5 -302t217.5 -105q145 0 224 101t79 288q0 196 -77.5 302.5t-217.5 106.5q-145 0 -224 -102.5t-79 -288.5z M313 1343l43 56l13 2q162 -159 319 -289l-35 -49l-14 -2q-212 171 -324 268z" />
<glyph unicode="&#xf3;" horiz-adv-x="1001" d="M100 455q0 232 108 361.5t302 129.5q183 0 286 -124t103 -345q0 -230 -108.5 -359.5t-301.5 -129.5q-184 0 -286.5 123.5t-102.5 343.5zM201 475q0 -197 77.5 -302t217.5 -105q145 0 224 101t79 288q0 196 -77.5 302.5t-217.5 106.5q-145 0 -224 -102.5t-79 -288.5z M375 1112q157 130 319 289l13 -2l43 -56l-2 -14q-112 -97 -324 -268l-14 2z" />
<glyph unicode="&#xf4;" horiz-adv-x="1001" d="M100 455q0 232 108 361.5t302 129.5q183 0 286 -124t103 -345q0 -230 -108.5 -359.5t-301.5 -129.5q-184 0 -286.5 123.5t-102.5 343.5zM201 475q0 -197 77.5 -302t217.5 -105q145 0 224 101t79 288q0 196 -77.5 302.5t-217.5 106.5q-145 0 -224 -102.5t-79 -288.5z M252 1114q99 105 229 266h43q130 -164 230 -266l-33 -47h-14q-124 127 -205 225q-93 -112 -203 -225h-14z" />
<glyph unicode="&#xf5;" horiz-adv-x="1001" d="M100 455q0 232 108 361.5t302 129.5q183 0 286 -124t103 -345q0 -230 -108.5 -359.5t-301.5 -129.5q-184 0 -286.5 123.5t-102.5 343.5zM195 1180v12l116 121l17 4q42 -4 167 -40t150 -36q8 0 17 4t20 13.5t20.5 18.5t26 25.5t29.5 28.5h10l37 -37v-12l-117 -121l-16 -6 q-40 5 -166.5 41.5t-153.5 36.5q-12 0 -25.5 -10t-40 -37t-44.5 -43h-13zM201 475q0 -197 77.5 -302t217.5 -105q145 0 224 101t79 288q0 196 -77.5 302.5t-217.5 106.5q-145 0 -224 -102.5t-79 -288.5z" />
<glyph unicode="&#xf7;" d="M96 516l8 72h824l10 -10l-8 -70h-824zM469 184q0 31 18.5 49.5t49.5 18.5t48 -17.5t17 -48.5t-18 -49t-49 -18t-48.5 17t-17.5 48zM469 913q0 31 18.5 50.5t49.5 19.5q30 0 47.5 -17.5t17.5 -47.5q0 -32 -18 -51t-49 -19t-48.5 17t-17.5 48z" />
<glyph unicode="&#xf8;" horiz-adv-x="1001" d="M100 455q0 232 108 361.5t302 129.5q87 0 160 -31l92 193l59 -23l8 -14l-92 -194q162 -118 162 -400q0 -230 -108.5 -359.5t-301.5 -129.5q-86 0 -159 28l-117 -245l-63 24l-5 12l117 248q-162 118 -162 400zM201 475q0 -229 102 -334l330 697q-58 28 -129 28 q-145 0 -224 -102.5t-79 -288.5zM367 96q58 -28 129 -28q145 0 224 101t79 288q0 225 -103 334z" />
<glyph unicode="&#xf9;" horiz-adv-x="1040" d="M166 924l106 12l-6 -647q-2 -99 44.5 -153t135.5 -54q143 0 291 154v688l101 12l-7 -754q0 -53 16 -76.5t52 -23.5q35 0 76 20l14 -10l-12 -67q-48 -30 -105 -33q-118 3 -127 153h-12q-140 -140 -289 -155q-135 0 -206.5 72t-69.5 206l2 224zM336 1343l43 56l12 2 q157 -154 320 -289l-35 -49l-14 -2q-212 171 -324 268z" />
<glyph unicode="&#xfa;" horiz-adv-x="1040" d="M166 924l106 12l-6 -647q-2 -99 44.5 -153t135.5 -54q143 0 291 154v688l101 12l-7 -754q0 -53 16 -76.5t52 -23.5q35 0 76 20l14 -10l-12 -67q-48 -30 -105 -33q-118 3 -127 153h-12q-140 -140 -289 -155q-135 0 -206.5 72t-69.5 206l2 224zM395 1112q163 135 320 289 l12 -2l43 -56l-2 -14q-112 -97 -324 -268l-14 2z" />
<glyph unicode="&#xfb;" horiz-adv-x="1040" d="M166 924l106 12l-6 -647q-2 -99 44.5 -153t135.5 -54q143 0 291 154v688l101 12l-7 -754q0 -53 16 -76.5t52 -23.5q35 0 76 20l14 -10l-12 -67q-48 -30 -105 -33q-118 3 -127 153h-12q-140 -140 -289 -155q-135 0 -206.5 72t-69.5 206l2 224zM272 1114q106 112 230 266 h43q135 -169 229 -266l-33 -47h-14q-124 127 -205 225q-93 -112 -203 -225h-14z" />
<glyph unicode="&#xfc;" horiz-adv-x="1040" d="M166 924l106 12l-6 -647q-2 -99 44.5 -153t135.5 -54q143 0 291 154v688l101 12l-7 -754q0 -53 16 -76.5t52 -23.5q35 0 76 20l14 -10l-12 -67q-48 -30 -105 -33q-118 3 -127 153h-12q-140 -140 -289 -155q-135 0 -206.5 72t-69.5 206l2 224zM303 1229q0 32 19 50.5 t51 18.5q31 0 48 -17t17 -48q0 -32 -18.5 -51t-50.5 -19q-31 0 -48.5 17.5t-17.5 48.5zM608 1229q0 32 19 50.5t51 18.5q31 0 48 -17t17 -48q0 -32 -18.5 -51t-50.5 -19q-31 0 -48.5 17.5t-17.5 48.5z" />
<glyph unicode="&#xfe;" horiz-adv-x="1038" d="M193 -379l6 778l-6 1028l104 11l-4 -639h10q125 122 281 143q171 0 262.5 -118t91.5 -332q0 -241 -116 -373.5t-326 -132.5q-105 0 -203 34l4 -399h-104zM291 406l2 -281q111 -57 211 -57q159 0 247 107t87 308q-2 175 -70.5 272t-192.5 97q-151 0 -282 -158z" />
<glyph unicode="&#xff;" horiz-adv-x="851" d="M-39 -324l2 17q167 33 255.5 97.5t154.5 209.5l-342 928l102 10l31 -109l254 -698h12l260 690l31 111h102l-348 -914q-71 -192 -170 -279.5t-282 -127.5h-15q-30 30 -47 65zM213 1229q0 32 19 50.5t51 18.5q31 0 48 -17t17 -48q0 -32 -18.5 -51t-50.5 -19 q-31 0 -48.5 17.5t-17.5 48.5zM518 1229q0 32 19 50.5t51 18.5q31 0 48 -17t17 -48q0 -32 -18.5 -51t-50.5 -19q-31 0 -48.5 17.5t-17.5 48.5z" />
<glyph unicode="&#x152;" horiz-adv-x="1726" d="M88 649q0 324 168.5 504t474.5 180q60 0 166.5 -12t163.5 -12h598l8 -13l-10 -84l-285 5h-295v-496l240 -2l235 2l9 -10l-11 -84l-475 2v-537l273 -2l315 6l10 -12l-12 -84h-600q-60 0 -180 -12.5t-176 -12.5q-294 0 -455.5 177.5t-161.5 496.5zM195 651q0 -283 132 -433 t390 -150q119 0 207 20q31 8 42 20.5t11 41.5l-6 995q0 38 -6 53t-23 19q-26 8 -91.5 16t-127.5 8q-256 0 -392 -152t-136 -438z" />
<glyph unicode="&#x153;" horiz-adv-x="1591" d="M88 457q0 230 107.5 358.5t296.5 128.5q127 0 216 -60.5t130 -176.5q47 114 138.5 175.5t217.5 61.5q147 0 230 -90.5t83 -249.5q0 -38 -4 -78l-22 -20l-602 -10v-33q0 -181 80 -284t229 -103q145 0 264 92l14 -6l-12 -92q-125 -82 -272 -82q-126 0 -216 61.5t-135 175.5 q-45 -115 -135.5 -176t-220.5 -61q-183 0 -285 124t-102 345zM193 475q0 -197 77 -302t217 -105q145 0 224.5 101t79.5 288q0 196 -77.5 302.5t-217.5 106.5q-145 0 -224 -102.5t-79 -288.5zM887 571l520 17l4 26q0 121 -60 185.5t-165 64.5q-119 0 -197.5 -77t-101.5 -216z " />
<glyph unicode="&#x178;" horiz-adv-x="1048" d="M41 1309h119l24 -64l318 -635h14l348 633l25 66h119l-451 -828l-2 -90l4 -391h-106l6 391l-2 92zM291 1606q0 32 18.5 50.5t50.5 18.5q31 0 48.5 -17t17.5 -48q0 -32 -19 -51t-51 -19q-31 0 -48 17.5t-17 48.5zM596 1606q0 32 19 50.5t51 18.5q31 0 48 -17t17 -48 q0 -32 -18.5 -51t-50.5 -19q-31 0 -48.5 17.5t-17.5 48.5z" />
<glyph unicode="&#x2c6;" horiz-adv-x="798" d="M147 1114q98 103 232 266h41q145 -177 229 -266l-33 -47h-14q-115 118 -203 227q-77 -95 -202 -227h-17z" />
<glyph unicode="&#x2dc;" horiz-adv-x="798" d="M94 1180v12l117 121l16 4q42 -4 167.5 -40t150.5 -36q10 0 22.5 8t22.5 17t31 30t36 35h11l37 -37v-12l-117 -121l-17 -6q-40 5 -166 41.5t-153 36.5q-12 0 -25.5 -10t-41 -37.5t-44.5 -42.5h-12z" />
<glyph unicode="&#x2000;" horiz-adv-x="888" />
<glyph unicode="&#x2001;" horiz-adv-x="1776" />
<glyph unicode="&#x2002;" horiz-adv-x="888" />
<glyph unicode="&#x2003;" horiz-adv-x="1776" />
<glyph unicode="&#x2004;" horiz-adv-x="592" />
<glyph unicode="&#x2005;" horiz-adv-x="444" />
<glyph unicode="&#x2006;" horiz-adv-x="296" />
<glyph unicode="&#x2007;" horiz-adv-x="296" />
<glyph unicode="&#x2008;" horiz-adv-x="222" />
<glyph unicode="&#x2009;" horiz-adv-x="355" />
<glyph unicode="&#x200a;" horiz-adv-x="98" />
<glyph unicode="&#x2010;" horiz-adv-x="632" d="M61 457v71l498 68l12 -10v-72l-497 -70z" />
<glyph unicode="&#x2011;" horiz-adv-x="632" d="M61 457v71l498 68l12 -10v-72l-497 -70z" />
<glyph unicode="&#x2012;" horiz-adv-x="632" d="M61 457v71l498 68l12 -10v-72l-497 -70z" />
<glyph unicode="&#x2013;" horiz-adv-x="993" d="M-31 492l6 71h1039l10 -10l-6 -72h-1041z" />
<glyph unicode="&#x2014;" horiz-adv-x="1943" d="M-31 492l6 71h1991l10 -10l-6 -72h-1993z" />
<glyph unicode="&#x2018;" horiz-adv-x="301" d="M66 1067q0 110 131 244l45 -33l2 -12q-88 -91 -88 -170q0 -74 77 -99v-12q-21 -25 -61 -53q-106 37 -106 135z" />
<glyph unicode="&#x2019;" horiz-adv-x="301" d="M63 975q89 92 89 170q0 72 -78 98v12q19 22 61 52q107 -34 107 -133q0 -110 -131 -244l-45 33z" />
<glyph unicode="&#x201a;" horiz-adv-x="471" d="M115 -172q112 83 112 170q0 49 -63 84v12q34 27 74 41q81 -49 81 -121q0 -109 -165 -233l-39 37v10z" />
<glyph unicode="&#x201c;" horiz-adv-x="512" d="M51 1067q0 110 131 244l45 -33l2 -12q-88 -91 -88 -170q0 -73 78 -99v-12q-17 -19 -61 -51q-107 34 -107 133zM285 1067q0 110 131 244l45 -33l2 -12q-88 -91 -88 -170q0 -73 78 -99v-12q-15 -17 -62 -51q-106 34 -106 133z" />
<glyph unicode="&#x201d;" horiz-adv-x="530" d="M57 963v12q88 94 88 170q0 72 -79 98v12q20 20 61 52q106 -33 106 -133q0 -112 -129 -244zM289 963v12q88 94 88 170q0 72 -80 98v12q29 29 61 52q107 -33 107 -133q0 -113 -131 -244z" />
<glyph unicode="&#x201e;" horiz-adv-x="704" d="M115 -172q112 83 112 170q0 49 -63 84v12q34 27 74 41q81 -49 81 -121q0 -109 -165 -233l-39 37v10zM346 -182l2 10q111 85 111 170q0 47 -62 84v12q33 27 72 41q82 -48 82 -121q0 -110 -166 -233z" />
<glyph unicode="&#x2022;" horiz-adv-x="499" d="M174 485q0 34 21 55t55 21q33 0 52.5 -19.5t19.5 -52.5q0 -35 -20 -56t-54 -21t-54 19.5t-20 53.5z" />
<glyph unicode="&#x2026;" horiz-adv-x="1140" d="M158 61q0 33 18.5 52.5t50.5 19.5t50 -18t18 -49q0 -34 -19 -53t-51 -19q-67 0 -67 67zM494 61q0 33 18.5 52.5t50.5 19.5t50 -18t18 -49q0 -34 -19 -53t-51 -19q-67 0 -67 67zM829 61q0 32 19 52t51 20q31 0 49.5 -18t18.5 -49q0 -33 -19.5 -52.5t-50.5 -19.5 q-32 0 -50 17.5t-18 49.5z" />
<glyph unicode="&#x202f;" horiz-adv-x="355" />
<glyph unicode="&#x2039;" horiz-adv-x="454" d="M43 444v27l307 350l53 -30l3 -17l-275 -315l275 -314l-3 -16l-53 -31z" />
<glyph unicode="&#x203a;" horiz-adv-x="468" d="M59 131v16l273 314l-273 313v17l54 32l307 -346v-28l-307 -351z" />
<glyph unicode="&#x205f;" horiz-adv-x="444" />
<glyph unicode="&#x20ac;" horiz-adv-x="1009" d="M39 342l6 61h150q-5 73 -5 91q0 47 5 81h-150l-6 9l6 61h158q34 182 147 278.5t297 96.5q152 0 281 -82l-21 -76l-12 -2q-108 82 -252 82q-143 0 -230.5 -75.5t-113.5 -221.5h408l8 -8l-6 -62h-420q-4 -25 -4 -75t6 -97h416l8 -8l-6 -61h-406q29 -129 111.5 -196.5 t212.5 -67.5q153 0 278 92l15 -8l-9 -74q-139 -90 -288 -90q-173 0 -279.5 88t-138.5 256h-160z" />
<glyph unicode="&#x2122;" horiz-adv-x="1183" d="M59 1257l7 50h354l4 -7l-4 -49l-90 4h-54l-4 -276l4 -150h-65l2 144l-2 282h-53l-92 -4zM522 829l53 478h80l27 -72l109 -262h4l118 264l25 70h78l49 -478h-59l-13 146l-26 227h-6l-144 -317h-55l-135 317h-6l-27 -221l-14 -152h-58z" />
<glyph unicode="&#x25fc;" horiz-adv-x="942" d="M0 0v942h942v-942h-942z" />
</font>
</defs>
</svg>
